&title=WARNING×WARNING×WARNING [DX]
&wholebpm=172
&artist=暁Records
&des=玉子豆腐
&shortid=10702
&genre=東方Project
&cabinet=DX
&version=maimai DX
&chartconverter=Neskol
&lv_2=3
&des_2=-
&lv_3=7
&des_3=-
&lv_4=9+
&des_4=サファ太
&lv_5=11+
&des_5=玉子豆腐
&des_6=
&inote_2=
(172){1},
{1},
{1},
{1},
{1}1,
{1}1,
{2}1,1,
{1}1x,
{1}8,
{1}8,
{2}8,8,
{1}8h[1:1],
{1},
{1}1x,
{1}1,
{1}2,
{1}2,
{1}3x,
{1}3,
{1}4,
{1}4/5,
{1}5x,
{1}5,
{1}6,
{1}6,
{1}7,
{1}7,
{1}8x,
{1}8b,
{1}1-4[4:3],
{1},
{1}8-5[4:3],
{1},
{1}4-1[4:3],
{1},
{1}5-8[4:3],
{1},
{2}1,1,
{2}8,8,
{1}1-5[4:3],
{1},
{2}6,6,
{1}6h[2:1],
{2}7,7,
{1}7x,
{2}8,8,
{1}8h[2:1],
{2}1/8,1/8,
{1}1-4[4:3]/8-5[4:3],
{1},
{1}B4,
{1}B5,
{1}B3,
{1}B6,
{1}C1hf[1:2],
{1},
{1},
{1},
{4}1,1,1,,
{1}1h[2:1]/8h[2:1],
{2}2,2,
{1}2x,
{4}3,3,3,,
{1}3h[2:1]/4h[2:1],
{2}5,5,
{1}4h[2:1]/5h[2:1],
{4}5x,5x,5x,,
{4}6,6,6,,
{1}5h[2:1]/6h[2:1],
{4}7,7,7,,
{1}7x/8x,
{4}8,8,8,,
{1}1h[2:1]/8h[2:1],
{2}1/8,1/8,
{1}1-4[4:3]/8-5[4:3],
{1},
{1}B4,
{1}B3,
{1}B2,
{1}B1,
{1}B8,
{1}B7,
{1}B6,
{1}B4/B5,
{1}B3/B6,
{1}E2/E8,
{1}C1hf[1:1],
{1},
{2}8,8,
{2}1,1,
{2}2,2,
{2}3,3,
{2}4,4,
{2}5,5,
{2}6,6,
{1}7h[2:1],
{4}8x,8x,8b,,
{4}7,7,7,,
{4}6,6,6,,
{2}4/5,4/5,
{4}4,4,5,5,
{1}4h[4:3],
{1},
{1},
{1},
E
&inote_3=
(172){1},
{1},
{1}C1hf[1:1],
{1},
{4}2,2,1/2,,
{4}7,7,7/8,,
{4}1,1,8,8,
{4}1/8,1/8,2x/7x,,
{4}7,7,7/8,,
{4}2,2,1/2,,
{4}8,8,1,1,
{1}1xpp4[8:11]/8xqq5[8:11],
{1},
{4}6xh[4:1],,5,5,
{4}4,4,3/5,,
{4}2,3,4,5,
{4}6,7,5x/6x,,
{4}3xh[4:1],,4,4,
{4}5,5,4/6,,
{4}7,6,5,4,
{4}3,2,3x/4x,,
{4}5xh[4:1],,6,5,
{4}4,3,3/4,,
{4}2,3,4,5,
{4}6,6,5x/7x,,
{4}4,4,3,4,
{4}5,6,5/6,,
{4}3,3,2,2,
{4}1,1x/8x,2x/7x,,
{1}8-5[8:3],
{1}4-1[8:3],
{1}8<5[8:3],
{4}4,4,4,,
{1}3-8[8:3],
{1}7-4[8:3],
{1}3>8[8:3],
{4}7,7,7,,
{4}6,6,5,5,
{4}4,4,3,3,
{4}2,2,1,1,
{4}1x/8x,1x/8x,2b/7b,,
{4}7h[4:1],8,2h[4:1],1,
{1}8<5[8:3],
{4}6,5/6,3,3/4,
{4}5,4/5,3x/6x,,
{4}2h[4:1],1,7h[4:1],8,
{1}1>4[8:3],
{4}3,3/4,6,5/6,
{4}4,3,2,1,
{4}1/8,2/7,3b/6b,,
{2}B4/B5,B3/B6,
{2}B2/B7,B1,
{2}B7,B5,
{2}B3,B1,
{1}C1hf[1:2],
{1},
{1},
{4}1x,1x,1x,,
{4}2h[4:1],1,7h[4:1],8,
{1}8-4[8:3],
{4}6,5/6,3,3/4,
{4}6,5/6,4x/7x,,
{4}7h[4:1],8,2h[4:1],1,
{1}1-5[8:3],
{4}3,3/4,6,5/6,
{4}7,8,1,2,
{4}2x,1x/2x,3b/8b,,
{4}2h[4:1],1,3h[4:1],4,
{1}2<7[8:3],
{4}6,5/6,7,7/8,
{4}2,1/2,3x/8x,,
{4}7h[4:1],8,6h[4:1],5,
{1}7>2[8:3],
{4}3,3/4,2,1/2,
{4}8,7,6,5,
{4}4x/5x,3x/6x,2b/7b,,
{2}3h[2:1],4h[2:1],
{2}5h[2:1],6h[2:1],
{2}7h[2:1],8h[2:1],
{4}1,1,2x/7x,,
{2}2h[2:1],1h[2:1],
{2}8h[2:1],7h[2:1],
{2}6h[2:1],5h[2:1],
{4}4,4,3x/6x,,
{4}3,3,4,4,
{4}5,5,6,6,
{4}7,7,8,8,
{4}1x/8x,1x/8x,2b/7b,,
{4}7,8,1,2,
{4}3h[4:1],4,5h[4:1],4,
{4}5,6,7,8,
{4}1,1/8,2/7,,
{4}2,1,8,7,
{4}6h[4:1],5,4h[4:1],5,
{4}4,3,2,1,
{4}8,1/8,2/7,3/6,
{4}4/5,3/6,2b/7b,,
{4}1,2,3,3/4,
{4}5,6,7x/8x,,
{4}8,7,6,5/6,
{4}4,3,2,1,
{4}1/8,1/8,2/7,2b/7b,
{1},
{1},
{1},
E
&inote_4=
(172){1},
{1},
{4},B5/B6/E7,,E3/B3/B4,
{4}C1f,,,2x/7x,
{4}E4/B4,B6/B7,1-5[8:1],,
{4}2/8-4[8:1],,3,2/5,
{4}4/6,7,3/5,2,
{4}3h[4:1]/8h[4:1],,4x/5x,4x/5x,
{4}B6/E6,B2/B3,8-4[8:1],,
{4}1-5[8:1]/6,,6,4/7,
{4}3h[4:1]/5,4,4/6h[4:1],5<4[4:3],
{1},
{8}4x/7x,4x/7x,,3x/5x,,2x/6x,2x/6x,,
{4}1/8x,4x/5,2,3,
{8}4/5,,6,6,5,,4/6,,
{8}7h[4:1],,5,,4/6,,3,3,
{4}4,3/5,4/6,2/7,
{8}1x/8x,,2x/3x,,4/5,,6,6,
{4}5,4,3,2/5,
{8}3h[4:1],,4,,4/5,,6,6,
{4}5,4/7,2xh[4:1]/5xh[4:1],,
{8}1x/8x,,6x/7x,,4/5,,3,3,
{4}4,5/6,4/7,4/7,
{2}3-5[8:1],7-1[8:1],
{4}2,2/4,5,4/6,
{2}5/7-2[8:1],1/3-6[8:1],
{8}7,,1,1,8,,2V48[2:1]/7V51[2:1],,
{4},,,2/7,
{4}3/4,5/6,4b/7b,,
{2}6h[1:1],B6,
{2}3h[1:1],B3,
{2}5h[1:1],E5,
{1}C1xh[2:1],
{4}E8,C1,E3,,
{4}E4,C1,E7,,
{4}E5,C1,E2,E1,
{4}E8,C1,2x/7x,,
{8}6h[2:1],,,5,5,,4/7,,
{4}6,4/5,3,2<5[4:3]/4,
{1},
{4}3/4,5/6,2b/7b,,
{4}E6/B6,B2/B3,1-5[8:1]/7,,
{4}4/8-3[8:1],,1/2,3,
{4}4/6,8,3/5,1,
{4}8h[4:1],7h[4:1],6h[4:1],5,
{4}B3/E4,B6/B7,1/8-4[8:1],,
{4}1-6[8:1]/5,,7/8,6,
{4}3/5,1,4/6,8>6[2:1],
{4},,,2x/7x,
{8}4/6,4/6,,3/5,,2/6,2x/6x,,
{4}3h[4:1],4,7h[4:1],5,
{4}2h[4:1],1,1/8,4/5,
{8}3h[8:3],,,4,3/4,,2/5,,
{4}1,7/8,6,5/7pp4[8:5],
{4},,,2>7[2:1],
{4},,,1/8,
{1}C1hf[2:1]/B2/B7,
{16}1x/8x,,,1x/8x,,,1x/8x,,2b/7b,,,,,,,,
{4}B7/E8,B3/E4,5-1[8:1]/6,,
{4}2-5[8:1]/8-5[8:1],,4/6,4/5,
{4}2/4h[4:1],1,5h[4:1]/7,8,
{4}1h[4:1],2h[4:1],3h[4:1],4,
{4}B6/E6,B1/E2,3/4-8[8:1],,
{4}1-4[8:1]/7-4[8:1],,2/6,4/5,
{8}6,5,4/7,,3,4,2<4[2:1]/5,,
{4},,,3/6,
{4}7b,6b/7b,2b,2b/3b,
{4}B7/E8,B4/E4,5-1[8:1]/6,,
{4}2>5[8:1]/8<5[8:1],,3/7,5/6,
{4}3h[4:1]/4,1,5/6h[4:1],8,
{4}3h[4:1],1h[4:1],8h[4:1],6,
{4}B3/E4,E8/B8,5-1[8:1]/6,,
{4}2>5[8:1]/8<5[8:1],,3/7,1,
{4}2/8,5/6,1/7,3>5[8:5]/4,
{4},,,4z8[2:1],
{1},
{4}E6,B7,B3,E2,
{4}C1,E1,B2/B7,,
{4}E7,C1,E3,E2/E8,
{1}C1xh[2:1],
{8}C1f/B2/B7,,,,2x/7x,2x/7x,2x/7x,,
{4}3/5,4/6,3/7,2/6,
{4}3/4h[4:1],1,5h[4:1]/6,8,
{8}1/2,1/2,3/8,,1b/6b,,,,
{4}E4,B2/E3,E6,B7/E7,
{4}C1,E1/B1,E8,C1,
{2}B3/B4/E5,B6/B7/E8,
{8}5/6,5/6,4/7,,3/5-8[8:1],,,,
{8}2,2,5,5,4,4,7,7,
{8}3,3,8,8,1,1,6,6,
{8}2,2,4,4,2,2,4,4,
{8}1,1,8,8,1,1,8,8,
{8}2,2,6,6,4,4,8,8,
{8}3,3,7,7,1,1,5,5,
{8}4,4,7,7,5,5,7,7,
{8}4,4,8,8,1,1,5,5,
{4}4b/6b,2b/4b,6b/8b,2b/7b,
{4}3h[4:1],4h[4:1],5h[4:1],6,
{4}7h[4:1],5h[4:1],4h[4:1],3,
{2}3-8[8:1]/5,4/6-1[8:1],
{1}3/4<1[2:1],
{8}2x/7x,2x/7x,,4x/5x,4x/5x,,C1/B2/B7,,
{1},
{1},
{1},
E
&inote_5=
(172){1},
{4},,,8b,
{4}4h[4:1],6h[2:1],,2h[4:1],
{8}8h[4:1],,1,2/7,,4/5,3/6-3[8:1],,
{4}2x-7[8:1],5-8[8:1],1-4[8:1],6<4[2:1],
{8},,,,1,,4,5,
{8}3,5,6,2,4,5,1>6[4:1],8,
{4},,1/8,3-6[8:1]/6,
{4}7-2[8:1],4-1[8:1],8-5[8:1],3>5[2:1],
{8},,,,8,,5,4,
{8}6,4,3,,2/4,,5>6[4:3]/7,,
{1},
{8}4/5,4/5,,1/8,,2/7,2b/7b,,
{8}3/4,,B2/B5,,8,8,1,1,
{4}2/8,1/7,3/8,1/6,
{4}7-2[8:1],4,3-6[8:1],8w4[4:1],
{4},,2/7,2/7,
{8}5/6,,B4/B7,,1,1,8,8,
{4}2/4,5/7,2/5,4/7,
{4}3/4<7[8:1],2,5>2[8:1]/6,7,
{4}4/5,1/8,2-5[8:1]/7-4[8:1],,
{8}3/4,,E2/E6,,8,8,1,1,
{8}6,6,3,3,4/5,,2/7,,
{4}3<6[8:1],8,7>2[8:1],4,
{4}3<6[8:1],8-4[8:1],1-5[8:1],8,
{8}3-6[8:1]/7-2[8:1],,,,8,8,2,2,
{8}6,6,4,4,4/5,,3/6,,
{8}1h[4:1]/7h[4:1],,,2h[4:1]/8h[4:1],,,,1/8,
{4}1/8,B2/B7,E4/B4/B5/E6,,
{2}5<2[2:1],B2/B3,
{2}4>7[2:1],B6/B7,
{4}5/6,7/8,1/2,3/4,
{4}5>2[4:1]/6<1[4:1],,,4/5,
{8}4h[4:1]/6,5,6h[4:1],5,4h[4:1],5,6h[4:1],5,
{8}3h[4:1],4,5h[4:1],4,3h[4:1],4,5h[4:1],4,
{4}3-8[8:1],7-4[8:1],2-5[8:1],8,
{4}6/7,5/8,1/4,2/3,
{2}3/4-7[8:1],5-2[8:1]/6,
{4}3/4-8[8:1],1,5-1[8:1]/6,8,
{4}7-2[8:1],3-6[8:1],5-8[8:1],3>6[2:1],
{4}C1f,,,4/6b-1[8:1],
{4}3x-8[8:1],5-1[8:1],4-8[8:1],6<3[8:3],
{8},,,,B4/B5/B6,,8,1,
{8}2>5[8:1],,7,6<1[8:1],,3,2w6[4:1],,
{8},,,,4/7,6,3-8[8:1]/5,,
{4}6-1[8:1],4-8[8:1],5-1[8:1],3>6[8:3],
{8},,,,B3/B4/B5,,1,8,
{8}7<4[8:1],,1,2,3>8[8:1],,7w3[4:1],,
{4},,1/2,4/8,
{8}3/4,3/4,,1/6,,5/6,4/7,,
{4}8x-4[8:1],3,1x-5[8:1],6,
{4}8-4[8:1],3,1-5[8:1],6<3[4:1],
{4}4,,1/8,2/7-3[8:1],
{4}8-4[8:1],1-5[8:1],2-6[8:1],8<1[2:1],
{4},,,4/5,
{1}C1f/B3/B6,
{8}3/7,2/6,3/7,2/6,3b/7b,,4/5,,
{16}5/7,,,4/5,,,2/4,,1x/8x,,,,3/6<1[8:1],,,,
{4}2x>5[8:1],7-3[8:1],1-5[8:1],6<3[8:3],
{8},,,,B5/B6/B7,,4,5,
{8}6<1[8:1],,3,2>5[8:1],,7,6w2[4:1],,
{8},,,,4/5,4/5,3>8[8:1]/6,,
{4}7<4[8:1],2-6[8:1],8-4[8:1],3>6[8:3],
{8},,,,B2/B3/B4,,6,5,
{8}4>1[8:1],,6,7,8<5[8:1],,3w7[4:1],,
{4},,7/8,4/5,
{4}E3/B3/B4,B5/B6/E7,B2/E2/B3/E4,E6/B6/B7/E8,
{4}2x-7[8:1],6-1[8:1],5-2[8:1],6<3[8:3],
{8},,,,B1/B2/B7/B8,,5,6,
{8}7<4[8:1],,3,2-6[8:1],,8,8w4[4:1],,
{4},,1b/8b,5b-8[8:1]/6b,
{4}7-2[8:1],3-8[8:1],4-7[8:1],3>6[8:3],
{8},,,,B1/C1/B2/B7/B8,,3,2,
{8}1>4[8:1],,7,6,5-1[8:1],,2>7[2:1],,
{4},,,4/5,
{8}1/8,1/8z4[2:1],,,,,,,
{4}1x/8x,B2/B7,4x/5x,B3/B6,
{4}1x/8x,B2/B7,4x/5x,B3/B6,
{4}1x/8x,B2/B7,4x/5x,B3/B6,
{1}1h[2:1]/8h[2:1],
{4}1x/8x,E3/E7,4x/5x,C1,
{4}1x/8x,E3/E7,4x/5x,C1,
{4}1x/8x,E3/E7,4x/5x,C1,
{8}1/8,2/7,3/6,,3/6,,1/8,,
{4}4x/5x,B1/E2/B8/E8,4x/5x,B2/B3/B6/B7,
{4}4x/5x,E7/B7/B8,4x/5x,B1/B2/E3,
{4}4x/5x,B6/E6/B7,4x/5x,B2/B3/E4,
{8}1x/8x,1x/8x,1x/8x,,4x/5x,,2b/7b,,
{8}8x-5[8:1],8,4-1[8:1],4,8-5[8:1],8,4-1[8:1],4,
{8}7-4[8:1],7,3-8[8:1],3,7-4[8:1],7,3-8[8:1],3,
{8}6-3[8:1],6,2-7[8:1],2,6-3[8:1],6,2-7[8:1],2,
{8}6-3[8:1],6,1-5[8:1],1,8,,2b/6b,,
{8}4x-1[8:1],4,8-5[8:1],8,4-1[8:1],4,8-5[8:1],8,
{8}3-8[8:1],3,7-4[8:1],7,3-8[8:1],3,7-4[8:1],7,
{8}2-7[8:1],2,6-3[8:1],6,2-7[8:1],2,6-3[8:1],6,
{8}2<7[8:1],2,6>3[8:1],6,2<7[8:1],2,6-1[8:1],6,
{8}3-8[8:1],3,5-1[8:1],5,4-8[8:1],4,5x,,
{4}7-3[8:1],2-6[8:1],8-4[8:1],1>8[2:1],
{8},,,,,,7,6/8,
{2}1xh[4:1]/5xh[4:1],4xh[4:1]/8xh[4:1],
{4}4/5,B1/E2/E8/B8,B4/E4/B5/E6,1/8,
{8}7x/8x,1/6,,1x/2x,3<6[8:1]/8,,C1f,,
{1},
{1},
{1},
E
